Thug Life 2017 x264 720p HD Esub Punjabi GOPISAHI

  • Category Movies
  • Type Bollywood
  • Language Punjabi
  • Total size 950.6 MB
  • Uploaded By PENDUDESI
  • Downloads 921
  • Last checked 6 days ago
  • Date uploaded 1 week ago
  • Seeders 24
  • Leechers 15

Thug Life

Its the story of three boys they want to make money with the help of shortcut.

Infohash : 8522B677C6CFB580F7ED9588AE9AA18BEDB99EDC

//www.gopisahi.in/



Thug Life 2017 x264 720p HD Esub Punjabi GOPISAHI


Format                         : Matroska

Format version                 : Version 4

File size                      : 951 MiB

Duration                       : 2 h 13 min

Overall bit rate               : 998 kb/s

Movie name                     : THUG LIFE 2017 GOPISAHI


Video

Format                         : AVC

Format/Info                    : Advanced Video Codec

Format profile                 : [email protected]

Format settings                : CABAC / 11 Ref Frames

Format settings, CABAC         : Yes

Format settings, Reference fra : 11 frames

Codec ID                       : V_MPEG4/ISO/AVC

Duration                       : 2 h 13 min

Bit rate                       : 899 kb/s

Width                          : 1 280 pixels

Height                         : 580 pixels

Display aspect ratio           : 2.2:1

Frame rate mode                : Constant

Frame rate                     : 24.000 FPS

Color space                    : YUV

Chroma subsampling             : 4:2:0

Bit depth                      : 8 bits

Scan type                      : Progressive

Bits/(Pixel*Frame)             : 0.050

Stream size                    : 856 MiB (90%)

Title                          : GOPISAHI

Writing library                : x264 core 157 r2935 545de2f


Audio

Format                         : AAC LC

Duration                       : 2 h 13 min

Bit rate                       : 96.0 kb/s

Channel(s)                     : 2 channels

Channel layout                 : L R

Sampling rate                  : 48.0 kHz

Frame rate                     : 46.875 FPS (1024 SPF)

Compression mode               : Lossy

Delay relative to video        : -21 ms

Stream size                    : 92.0 MiB (10%)

Title                          : GOPISAHI

Language                       : Panjabi


Text

Language                       : English





Files:

  • Thug Life 2017 x264 720p HD Esub Punjabi GOPISAHI.mkv (950.6 MB)

Comments

Code:

  • udp://tracker.leechers-paradise.org:6969/announce
  • udp://tracker.coppersurfer.tk:6969/announce
  • udp://denis.stalker.upeer.me:6969/announce
  • udp://tracker.internetwarriors.net:1337/announce
  • udp://explodie.org:6969/announce
  • udp://tracker.pirateparty.gr:6969/announce
  • udp://tracker.uw0.xyz:6969/announce
  • udp://denis.stalker.upeer.me:6969/announce
  • udp://torrentclub.tech:6969/announce
  • udp://retracker.lanta-net.ru:2710/announce
  • udp://tracker.supertracker.net:1337/announce
  • //tracker.yoshi210.com:6969/announce
  • udp://amigacity.xyz:6969/announce
  • udp://newtoncity.org:6969/announce
  • udp://torrentclub.tech:6969/announce